<?xml version="1.0" standalone="no"?>
<!DOCTYPE svg PUBLIC "-//W3C//DTD SVG 1.1//EN" "http://www.w3.org/Graphics/SVG/1.1/DTD/svg11.dtd">
<svg xmlns="http://www.w3.org/2000/svg">
<defs >
<font id="Ubuntu" horiz-adv-x="614" ><font-face
    font-family="Ubuntu Light"
    units-per-em="1000"
    panose-1="2 11 6 4 3 6 2 3 2 4"
    ascent="932"
    descent="-189"
    alphabetic="0" />
<glyph unicode=" " glyph-name="space" horiz-adv-x="233" />
<glyph unicode="!" glyph-name="exclam" horiz-adv-x="306" d="M218 507Q218 424 212 355T197 216H111Q101 286 95 355T89 507V693H218V507ZM233 66Q233 31 210 9T153 -13Q120 -13 97 9T73 66Q73 101 96 123T153 146Q187 146 210 124T233 66Z" />
<glyph unicode="&quot;" glyph-name="quotedbl" horiz-adv-x="457" d="M388 760V698Q388 650 381 595T365 483H288Q278 539 272 594T266 699V760H388ZM191 760V698Q191 650 184 595T168 483H91Q81 539 75 594T69 699V760H191Z" />
<glyph unicode="#" glyph-name="numbersign" horiz-adv-x="671" d="M372 176H233L199 0H92L126 176H46V271H144L173 422H46V516H191L225 693H332L298 516H437L471 693H578L544 516H625V422H526L497 271H625V176H479L445 0H338L372 176ZM251 271H390L419 422H280L251 271Z" />
<glyph unicode="$" glyph-name="dollar" horiz-adv-x="568" d="M234 13Q162 18 118 32T51 59L85 154Q117 138 162 125T266 112Q335 112 361 132T388 187Q388 210 377 227T346 257T299 281T238 304Q207 315 177 329T122 363T82 413T67 484Q67 553 108 601T234 664V776H338V668Q386
664 424 655T484 636L459 537Q430 548 391 558T300 568Q246 568 219 549T192 495Q192 475 200 462T224 438T263 418T315 398Q356 382 392 365T456 324T498 268T514 192Q514 126 473 78T338 16V-109H234V13Z" />
<glyph unicode="%" glyph-name="percent" horiz-adv-x="897" d="M383 519Q383 428 337 379T215 330Q178 330 147 342T94 379T60 438T47 519Q47 611 93 659T215 708Q290 708 336 660T383 519ZM288 519Q288 572 269 598T215 625Q181 625 162 599T143 519Q143 466
162 440T215 413Q249 413 268 439T288 519ZM586 693H701L310 0H195L586 693ZM850 173Q850 82 804 33T682 -16Q645 -16 614 -4T561 33T527 92T514 173Q514 265 560 313T682 362Q757 362 803 314T850 173ZM755 173Q755 226 736 252T682 279Q648 279 629 253T610 173Q610
120 629 94T682 67Q716 67 735 93T755 173Z" />
<glyph unicode="&amp;" glyph-name="ampersand" horiz-adv-x="684" d="M43 184Q43 222 54 253T85 309T130 353T184 387Q154 419 136 455T117 531Q117 615 168 662T304 709Q347 709 380 697T436 664T469 615T481 554Q481 522 471 494T442 443T401 400T350 365L487
227Q501 253 510 285T524 349L625 336Q620 296 604 248T562 155Q595 118 625 79T676 0H550Q540 17 525 37T492 74Q451 37 398 14T278 -9Q211 -9 166 9T94 55T55 117T43 184ZM159 192Q159 175 165 157T186 124T224 98T281 88Q326 88 362 102T425 142L249 321Q234
313 218 302T189 276T168 240T159 192ZM376 549Q376 578 357 598T302 619Q264 619 244 596T224 538Q224 509 240 481T284 426Q303 436 319 448T348 475T368 508T376 549Z" />
<glyph unicode="&apos;" glyph-name="quotesingle" horiz-adv-x="260" d="M191 760V698Q191 650 184 595T168 483H91Q81 539 75 594T69 699V760H191Z" />
<glyph unicode="(" glyph-name="parenleft" horiz-adv-x="339" d="M195 299Q195 176 232 68T335 -129L250 -185Q169 -88 122 35T75 299Q75 439 122 562T250 783L335 727Q269 637 232 530T195 299Z" />
<glyph unicode=")" glyph-name="parenright" horiz-adv-x="339" d="M144 299Q144 422 107 529T4 727L89 783Q170 686 217 563T264 299Q264 159 217 36T89 -185L4 -129Q70 -40 107 68T144 299Z" />
<glyph unicode="*" glyph-name="asterisk" horiz-adv-x="482" d="M268 530Q297 549 331 570T399 602L414 607L448 503L432 498Q400 488 360 485T284 480Q312 458 342 433T394 378L404 364L315 301L305 314Q285 343 270 380T241 449Q228 417 213 380T177 314L168
301L78 364L89 378Q109 407 139 432T199 480Q164 481 124 483T50 498L34 503L68 607L83 602Q117 591 151 570T214 530Q205 565 196 603T186 676V693H296V676Q296 641 287 603T268 530Z" />
<glyph unicode="+" glyph-name="plus" horiz-adv-x="568" d="M52 337H230V533H338V337H516V235H338V39H230V235H52V337Z" />
<glyph unicode="," glyph-name="comma" horiz-adv-x="268" d="M202 133Q204 116 204 108T204 92Q204 30 185 -36T130 -161L35 -135Q59 -77 67 -22T76 76Q76 88 76 106T74 133H202Z" />
<glyph unicode="-" glyph-name="hyphen" horiz-adv-x="315" d="M23 341H292V230H23V341Z" />
<glyph unicode="." glyph-name="period" horiz-adv-x="266" d="M213 66Q213 31 190 9T133 -13Q99 -13 76 9T53 66Q53 101 76 123T133 146Q166 146 189 124T213 66Z" />
<glyph unicode="/" glyph-name="slash" horiz-adv-x="416" d="M97 -185H-27L311 783H433L97 -185Z" />
<glyph unicode="0" glyph-name="zero" horiz-adv-x="568" d="M525 347Q525 172 461 79T284 -15Q171 -15 107 78T43 347Q43 434 59 501T107 615T183 685T284 709Q397 709 461 616T525 347ZM400 347Q400 401 394 448T375 529T339 584T284 604Q251 604 229 584T193
530T174 448T168 347Q168 293 173 246T192 165T228 110T284 90Q317 90 339 110T374 164T394 246T400 347Z" />
<glyph unicode="1" glyph-name="one" horiz-adv-x="568" d="M90 549Q148 572 206 608T310 693H395V0H274V531Q247 510 206 490T127 457L90 549Z" />
<glyph unicode="2" glyph-name="two" horiz-adv-x="568" d="M481 513Q481 477 466 443T428 376T374 313T314 253Q298 238 278 217T240 175T209 135T195 102H503V0H62Q61 8 61 19T61 37Q61 85 76 125T117 201T173 267T235 328Q259 351 281 373T319 416T346 460T356
507Q356 559 326 581T253 603Q225 603 201 595T159 576T126 554T105 535L45 620Q87 660 143 684T265 709Q376 709 428 657T481 513Z" />
<glyph unicode="3" glyph-name="three" horiz-adv-x="568" d="M236 -15Q209 -15 181 -12T127 -3T80 9T48 22L72 125Q93 115 133 103T232 90Q311 90 346 120T381 202Q381 235 368 257T331 292T277 311T212 317H171V415H221Q244 415 267 419T310 435T341 466T353
515Q353 539 344 556T321 584T287 600T247 605Q202 605 167 592T105 561L61 651Q75 660 95 670T139 689T192 703T251 709Q309 709 351 695T420 656T461 596T475 520Q475 472 449 434T380 376Q434 357 469 313T505 200Q505 154 489 115T440 47T357 2T236 -15Z" />
<glyph unicode="4" glyph-name="four" horiz-adv-x="568" d="M337 544Q313 515 288 482T238 413T192 340T152 265H337V544ZM455 693V265H533V166H455V0H337V166H33V252Q53 296 86 353T161 470T248 588T340 693H455Z" />
<glyph unicode="5" glyph-name="five" horiz-adv-x="568" d="M383 198Q383 231 370 257T325 301T238 328T100 337Q111 433 117 519T127 693H481V591H230Q229 574 228 553T225 509T221 467T217 433Q365 425 435 366T506 203Q506 156 490 116T441 47T358 2T241 -15Q214
-15 186 -11T133 -2T87 10T57 21L80 123Q101 113 140 102T237 90Q276 90 304 98T349 122T375 156T383 198Z" />
<glyph unicode="6" glyph-name="six" horiz-adv-x="568" d="M282 337Q253 337 226 332T177 317Q176 309 176 300T175 281Q175 241 180 206T199 144T236 102T295 86Q324 86 344 98T378 129T397 170T403 214Q403 274 374 305T282 337ZM297 433Q359 433 402 416T473
368T512 299T525 216Q525 177 512 136T470 62T398 7T296 -15Q177 -15 115 63T52 280Q52 380 81 457T165 588T297 668T472 697L479 597Q425 596 378 586T294 553T231 496T190 410Q239 433 297 433Z" />
<glyph unicode="7" glyph-name="seven" horiz-adv-x="568" d="M154 0Q160 76 181 160T232 323T299 472T372 589H53V693H516V601Q483 564 444 500T370 356T310 183T278 0H154Z" />
<glyph unicode="8" glyph-name="eight" horiz-adv-x="568" d="M520 186Q520 143 505 106T460 42T386 0T283 -15Q215 -15 170 4T98 52T60 114T48 178Q48 208 56 233T80 280T114 320T154 352Q108 384 86 421T63 513Q63 552 78 587T123 650T193 693T284 709Q343 709
384 692T452 648T491 588T503 524Q503 469 473 427T404 359Q463 327 491 285T520 186ZM167 180Q167 165 173 148T193 117T229 94T284 84Q314 84 336 92T372 113T393 144T400 180Q400 208 389 229T358 265T309 292T247 313Q211 290 189 258T167 180ZM385 522Q385
535 380 550T362 579T330 601T284 610Q257 610 238 602T206 580T188 551T182 520Q182 482 210 448T306 394Q343 417 364 446T385 522Z" />
<glyph unicode="9" glyph-name="nine" horiz-adv-x="568" d="M287 359Q316 359 344 364T392 381Q393 392 393 400T393 414Q393 454 388 489T369 551T332 593T273 609Q244 609 224 597T190 566T171 525T165 482Q165 421 194 390T287 359ZM382 286Q358 275 329 269T273
263Q211 263 168 279T97 325T56 394T43 478Q43 517 56 557T97 632T168 687T270 709Q392 709 454 631T517 409Q517 207 413 103T94 -2L89 99Q149 99 197 109T282 141T344 198T382 286Z" />
<glyph unicode=":" glyph-name="colon" horiz-adv-x="266" d="M213 440Q213 405 190 383T133 361Q99 361 76 383T53 440Q53 475 76 497T133 520Q166 520 189 498T213 440ZM213 66Q213 31 190 9T133 -13Q99 -13 76 9T53 66Q53 101 76 123T133 146Q166 146 189 124T213 66Z" />
<glyph unicode=";" glyph-name="semicolon" horiz-adv-x="264" d="M202 133Q204 116 204 108T204 92Q204 30 185 -36T130 -161L35 -135Q59 -77 67 -22T76 76Q76 88 76 106T74 133H202ZM212 440Q212 405 189 383T132 361Q98 361 75 383T52 440Q52 475 75 497T132
520Q165 520 188 498T212 440Z" />
<glyph unicode="&lt;" glyph-name="less" horiz-adv-x="568" d="M52 336L483 518L516 419L181 285L516 151L483 52L52 234V336Z" />
<glyph unicode="=" glyph-name="equal" horiz-adv-x="568" d="M52 229H516V127H52V229ZM52 445H516V343H52V445Z" />
<glyph unicode="&gt;" glyph-name="greater" horiz-adv-x="568" d="M516 234L85 52L52 151L387 285L52 419L85 518L516 336V234Z" />
<glyph unicode="?" glyph-name="question" horiz-adv-x="424" d="M184 606Q149 606 117 598T50 570L16 663Q53 684 100 696T198 709Q258 709 297 693T359 651T391 596T400 538Q400 504 388 477T356 427T315 384T274 342T243 296T230 242Q230 237 230 231T231 218H127Q125
228 124 239T123 261Q123 294 134 320T162 368T198 409T235 447T263 486T274 530Q274 563 252 584T184 606ZM262 66Q262 31 239 9T182 -13Q149 -13 126 9T102 66Q102 101 125 123T182 146Q216 146 239 124T262 66Z" />
<glyph unicode="@" glyph-name="at" horiz-adv-x="971" d="M700 35Q670 35 645 43T603 70Q581 54 552 46T490 38Q441 38 401 53T331 98T285 172T269 276Q269 325 285 368T331 444T406 494T508 513Q563 513 607 504T677 485V175Q677 147 687 137T716 126Q759 126
783 179T808 333Q808 395 787 448T724 541T625 602T493 625Q421 625 361 601T257 532T189 422T164 275Q164 189 189 125T259 17T368 -48T510 -70Q564 -70 605 -64T668 -52L680 -136Q669 -139 652 -143T612 -150T563 -156T510 -159Q417 -159 336 -134T194 -56T98
79T62 275Q62 384 98 466T194 603T331 685T493 713Q580 713 656 687T788 612T876 490T909 326Q909 255 894 201T850 110T784 54T700 35ZM571 144Q569 155 568 169T566 196V416Q546 421 514 421Q480 421 456 410T415 380T392 334T384 276Q384 213 411 172T495 131Q513
131 532 133T571 144Z" />
<glyph unicode="A" glyph-name="A" horiz-adv-x="684" d="M543 0Q529 41 514 81T485 163H193Q179 121 165 81T136 0H5Q44 111 79 205T147 383T214 543T282 693H401Q436 619 469 543T535 383T604 205T679 0H543ZM339 559Q316 506 287 430T225 265H453Q421 354 391
431T339 559Z" />
<glyph unicode="B" glyph-name="B" horiz-adv-x="657" d="M292 -8Q237 -8 181 -5T83 10V683Q105 687 130 690T181 696T232 699T281 700Q344 700 398 691T491 659T553 601T575 512Q575 463 552 428T486 372Q549 351 579 310T609 206Q609 99 531 46T292 -8ZM207
312V101Q228 99 252 98T296 97Q335 97 368 102T426 119T465 153T480 207Q480 266 437 289T318 312H207ZM207 411H296Q368 411 409 431T450 505Q450 555 408 576T297 597Q268 597 246 596T207 593V411Z" />
<glyph unicode="C" glyph-name="C" horiz-adv-x="638" d="M391 -15Q313 -15 251 9T146 79T80 193T57 347Q57 434 83 501T156 614T264 685T397 709Q440 709 475 703T536 688T579 671T603 658L566 555Q542 570 498 583T401 597Q356 597 317 582T250 535T205 457T189
348Q189 293 201 247T240 168T306 116T402 97Q469 97 511 110T576 136L610 33Q598 25 578 17T529 2T466 -10T391 -15Z" />
<glyph unicode="D" glyph-name="D" horiz-adv-x="726" d="M209 104Q220 103 238 103T287 102Q414 102 476 166T539 347Q539 465 478 528T289 591Q233 591 209 588V104ZM671 347Q671 257 643 191T564 80T440 14T279 -8Q237 -8 184 -5T83 10V683Q131 694 185 697T281
700Q368 700 440 680T563 616T643 506T671 347Z" />
<glyph unicode="E" glyph-name="E" horiz-adv-x="586" d="M83 0V693H528V586H209V415H493V310H209V107H552V0H83Z" />
<glyph unicode="F" glyph-name="F" horiz-adv-x="551" d="M83 0V693H521V586H209V409H486V302H209V0H83Z" />
<glyph unicode="G" glyph-name="G" horiz-adv-x="683" d="M407 598Q300 598 244 532T187 347Q187 291 200 245T240 165T306 114T399 95Q432 95 456 97T494 104V353H620V20Q594 10 532 -2T389 -14Q314 -14 252 10T147 80T79 193T55 347Q55 434 81 501T154 614T262
685T394 709Q442 709 479 703T544 688T588 671T613 658L575 555Q545 573 501 585T407 598Z" />
<glyph unicode="H" glyph-name="H" horiz-adv-x="719" d="M510 693H636V0H510V307H209V0H83V693H209V416H510V693Z" />
<glyph unicode="I" glyph-name="I" horiz-adv-x="292" d="M83 693H209V0H83V693Z" />
<glyph unicode="J" glyph-name="J" horiz-adv-x="513" d="M435 228Q435 177 424 133T386 56T312 4T194 -15Q128 -15 80 3T5 43L50 142Q75 125 111 110T186 94Q250 94 279 126T308 236V693H435V228Z" />
<glyph unicode="K" glyph-name="K" horiz-adv-x="651" d="M497 0Q471 40 437 84T366 169T288 247T209 311V0H83V693H209V407Q242 440 278 477T349 553T417 628T475 693H626Q593 655 556 614T480 532T402 449T324 371Q366 339 409 297T495 206T575 105T646 0H497Z" />
<glyph unicode="L" glyph-name="L" horiz-adv-x="534" d="M521 109V0H83V693H209V109H521Z" />
<glyph unicode="M" glyph-name="M" horiz-adv-x="884" d="M234 693Q256 655 283 600T338 485T393 362T444 246Q467 299 494 361T549 484T604 600T653 693H767Q776 617 784 532T798 357T810 177T820 0H696Q692 121 687 249T670 497Q659 474 644 442T612 373T578
295T544 218T513 148T489 92H395Q385 115 371 148T341 218T307 296T272 373T240 442T214 497Q203 377 198 249T188 0H64Q68 86 73 178T85 360T100 536T117 693H234Z" />
<glyph unicode="N" glyph-name="N" horiz-adv-x="740" d="M550 0Q516 57 474 122T387 254T296 383T207 496V0H83V693H186Q226 651 272 594T364 474T454 350T532 233V693H657V0H550Z" />
<glyph unicode="O" glyph-name="O" horiz-adv-x="782" d="M186 347Q186 290 200 244T240 165T305 114T391 96Q438 96 476 114T540 164T581 243T595 347Q595 404 581 450T541 529T476 580T391 598Q343 598 305 580T241 529T200 450T186 347ZM727 347Q727 258 701
190T629 77T522 8T392 -15Q323 -15 262 8T155 76T82 190T55 347Q55 436 82 503T155 617T263 686T392 709Q460 709 521 686T627 617T700 504T727 347Z" />
<glyph unicode="P" glyph-name="P" horiz-adv-x="623" d="M279 700Q430 700 510 645T591 473Q591 412 570 369T507 298T407 257T272 244H209V0H83V683Q127 693 180 696T279 700ZM288 591Q240 591 209 588V352H270Q361 352 410 377T459 474Q459 508 446 531T410
567T356 585T288 591Z" />
<glyph unicode="Q" glyph-name="Q" horiz-adv-x="782" d="M186 347Q186 290 200 244T240 165T305 114T391 96Q438 96 476 114T540 164T581 243T595 347Q595 404 581 450T541 529T476 580T391 598Q343 598 305 580T241 529T200 450T186 347ZM727 347Q727 272 708
212T655 108T576 35T476 -5Q479 -26 497 -41T542 -66T605 -82T680 -92L652 -187Q523 -177 447 -138T350 -12Q288 -6 235 20T141 91T78 200T55 347Q55 436 82 503T155 617T263 686T392 709Q460 709 521 686T627 617T700 504T727 347Z" />
<glyph unicode="R" glyph-name="R" horiz-adv-x="640" d="M274 700Q424 700 503 645T583 477Q583 336 444 286Q463 263 487 230T536 159T584 80T625 0H484Q465 36 443 72T399 143T354 208T313 263Q299 262 289 262T270 262H209V0H83V683Q129 693 181 696T274 700ZM283
591Q243 591 209 588V364H264Q310 364 345 369T403 387T439 422T451 478Q451 510 439 532T405 567T351 585T283 591Z" />
<glyph unicode="S" glyph-name="S" horiz-adv-x="540" d="M251 94Q319 94 350 117T381 182Q381 207 371 225T341 257T293 284T229 309Q193 322 160 337T101 376T60 431T44 508Q44 602 109 655T286 709Q351 709 401 695T481 663L442 561Q408 580 368 590T284 600Q233
600 205 579T176 520Q176 497 185 481T212 451T253 427T305 406Q354 388 392 370T457 326T498 266T512 182Q512 88 446 37T251 -15Q208 -15 173 -10T110 4T62 20T30 36L67 139Q94 124 140 109T251 94Z" />
<glyph unicode="T" glyph-name="T" horiz-adv-x="579" d="M566 693V584H353V0H226V584H13V693H566Z" />
<glyph unicode="U" glyph-name="U" horiz-adv-x="703" d="M350 -15Q279 -15 228 5T144 63T94 150T78 260V693H205V272Q205 225 215 192T245 137T291 106T351 96Q384 96 411 106T457 137T487 191T498 272V693H625V260Q625 200 609 150T559 63T473 6T350 -15Z" />
<glyph unicode="V" glyph-name="V" horiz-adv-x="683" d="M281 0Q206 162 137 339T7 693H146Q170 623 195 550T245 407T295 270T344 149Q367 204 392 269T442 406T493 550T541 693H676Q615 516 546 339T402 0H281Z" />
<glyph unicode="W" glyph-name="W" horiz-adv-x="938" d="M527 615Q543 561 561 503T598 386T637 271T675 164Q690 218 704 281T732 413T759 553T785 693H915Q880 505 837 332T741 0H621Q543 202 470 441Q433 320 395 211T319 0H199Q145 158 103 331T25 693H160Q172
625 185 554T213 415T243 282T273 164Q292 215 311 271T350 386T386 503T419 615H527Z" />
<glyph unicode="X" glyph-name="X" horiz-adv-x="657" d="M494 0Q465 59 421 130T329 267Q309 241 286 205T239 132T195 59T163 0H20Q65 85 124 174T252 362L30 693H180L333 456L484 693H628L409 363Q485 260 543 168T642 0H494Z" />
<glyph unicode="Y" glyph-name="Y" horiz-adv-x="625" d="M316 386Q361 461 404 538T482 693H622Q566 587 506 483T376 272V0H250V270Q181 377 120 482T3 693H151Q186 615 228 538T316 386Z" />
<glyph unicode="Z" glyph-name="Z" horiz-adv-x="588" d="M543 600Q510 564 463 507T366 382T268 243T182 107H554V0H30V79Q50 116 76 159T133 249T195 342T260 432T322 515T380 586H47V693H543V600Z" />
<glyph unicode="[" glyph-name="bracketleft" horiz-adv-x="346" d="M93 783H341V687H207V-89H341V-185H93V783Z" />
<glyph unicode="\" glyph-name="backslash" horiz-adv-x="416" d="M105 783L443 -185H319L-17 783H105Z" />
<glyph unicode="]" glyph-name="bracketright" horiz-adv-x="346" d="M5 -185V-89H138V687H5V783H253V-185H5Z" />
<glyph unicode="^" glyph-name="asciicircum" horiz-adv-x="568" d="M534 349L435 300L284 563L133 300L33 349L234 693H334L534 349Z" />
<glyph unicode="_" glyph-name="underscore" horiz-adv-x="500" d="M0 -84H500V-185H0V-84Z" />
<glyph unicode="`" glyph-name="grave" horiz-adv-x="392" d="M154 808L299 633L239 579L77 738L154 808Z" />
<glyph unicode="a" glyph-name="a" horiz-adv-x="534" d="M261 85Q317 85 346 91V225Q336 228 317 231T275 234Q255 234 235 231T198 220T171 198T161 161Q161 118 188 102T261 85ZM251 536Q311 536 352 521T417 479T452 414T463 329V12Q435 6 379 -2T251 -11Q204
-11 165 -2T99 27T56 79T40 158Q40 203 57 234T105 284T174 312T257 321Q277 321 299 319T346 310V330Q346 351 341 370T324 403T291 426T239 434Q197 434 162 428T105 414L90 512Q113 520 157 528T251 536Z" />
<glyph unicode="b" glyph-name="b" horiz-adv-x="596" d="M424 263Q424 340 394 385T297 430Q267 430 241 421T198 401V100Q211 97 231 95T281 92Q348 92 386 137T424 263ZM548 261Q548 198 530 148T477 61T393 6T282 -13Q222 -13 168 -4T77 16V756L198 776V505Q219
516 249 525T317 534Q372 534 415 515T488 459T532 373T548 261Z" />
<glyph unicode="c" glyph-name="c" horiz-adv-x="472" d="M48 261Q48 319 66 369T117 457T199 515T307 536Q381 536 447 509L421 410Q400 419 374 425T317 431Q246 431 209 387T172 261Q172 183 207 138T325 92Q356 92 386 98T438 113L455 13Q435 3 395 -5T311
-13Q244 -13 195 7T113 64T64 151T48 261Z" />
<glyph unicode="d" glyph-name="d" horiz-adv-x="596" d="M172 263Q172 183 210 138T315 92Q344 92 364 94T398 100V400Q382 411 356 420T299 430Q233 430 203 385T172 263ZM519 16Q483 5 429 -4T314 -13Q252 -13 203 6T120 60T67 146T48 260Q48 322 63 372T109
459T182 514T281 534Q319 534 348 525T398 505V756L519 776V16Z" />
<glyph unicode="e" glyph-name="e" horiz-adv-x="571" d="M48 259Q48 328 68 380T123 466T201 518T291 536Q399 536 459 469T520 269Q520 259 520 247T518 224H173Q178 161 217 127T332 92Q376 92 412 100T470 117L486 18Q476 13 459 8T419 -2T370 -10T317 -13Q248
-13 197 7T113 64T64 150T48 259ZM399 313Q399 338 392 360T372 399T339 425T292 435Q264 435 243 425T208 397T185 358T174 313H399Z" />
<glyph unicode="f" glyph-name="f" horiz-adv-x="400" d="M290 776Q332 776 364 769T412 755L389 655Q372 663 350 668T301 673Q272 673 252 665T220 641T203 605T198 558V523H388V422H198V0H77V560Q77 661 130 718T290 776Z" />
<glyph unicode="g" glyph-name="g" horiz-adv-x="586" d="M172 275Q172 198 205 163T292 127Q321 127 346 135T388 154V425Q375 428 356 430T308 433Q242 433 207 390T172 275ZM509 53Q509 -72 446 -130T251 -188Q203 -188 158 -180T75 -159L97 -56Q128 -69 167
-77T253 -85Q326 -85 357 -55T388 34V54Q370 45 341 36T273 27Q223 27 182 43T111 90T65 167T48 275Q48 332 65 380T116 462T198 515T307 534Q366 534 419 525T509 506V53Z" />
<glyph unicode="h" glyph-name="h" horiz-adv-x="582" d="M77 0V756L198 776V517Q218 524 244 529T297 534Q360 534 401 517T468 468T503 392T514 294V0H393V275Q393 317 388 346T370 394T336 421T284 430Q260 430 235 425T198 416V0H77Z" />
<glyph unicode="i" glyph-name="i" horiz-adv-x="276" d="M199 0H78V523H199V0ZM212 676Q212 642 190 622T138 602Q107 602 85 622T63 676Q63 711 85 731T138 751Q168 751 190 731T212 676Z" />
<glyph unicode="j" glyph-name="j" horiz-adv-x="275" d="M10 -186Q-3 -186 -26 -184T-68 -174L-52 -75Q-30 -82 1 -82Q43 -82 60 -58T77 16V523H198V14Q198 -88 150 -137T10 -186ZM211 676Q211 642 189 622T137 602Q106 602 84 622T62 676Q62 711 84 731T137
751Q167 751 189 731T211 676Z" />
<glyph unicode="k" glyph-name="k" horiz-adv-x="551" d="M198 319Q221 343 247 370T298 425T345 478T384 523H527Q477 467 422 407T310 290Q340 265 373 230T437 154T495 74T540 0H400Q382 31 359 65T308 131T253 191T198 240V0H77V756L198 776V319Z" />
<glyph unicode="l" glyph-name="l" horiz-adv-x="297" d="M259 -10Q205 -9 170 2T113 33T84 84T75 154V756L196 776V177Q196 155 199 140T212 115T236 99T276 90L259 -10Z" />
<glyph unicode="m" glyph-name="m" horiz-adv-x="865" d="M375 275Q375 357 355 393T278 430Q258 430 234 427T198 422V0H77V506Q112 516 168 525T288 534Q342 534 376 520T434 483Q445 491 462 500T500 516T544 529T592 534Q653 534 692 517T754 468T785 392T794
294V0H673V275Q673 357 653 393T576 430Q547 430 521 421T482 402Q490 377 493 349T496 289V0H375V275Z" />
<glyph unicode="n" glyph-name="n" horiz-adv-x="585" d="M77 506Q112 516 168 525T292 534Q356 534 399 517T467 468T503 392T514 294V0H393V275Q393 317 388 346T370 394T336 421T283 430Q260 430 235 427T198 422V0H77V506Z" />
<glyph unicode="o" glyph-name="o" horiz-adv-x="598" d="M550 262Q550 200 532 149T481 62T402 6T299 -14Q243 -14 197 6T118 62T67 149T48 262Q48 324 66 374T118 461T198 516T299 536Q354 536 400 517T480 461T531 375T550 262ZM426 262Q426 340 393 385T299
431Q239 431 206 386T172 262Q172 183 205 137T299 91Q359 91 392 137T426 262Z" />
<glyph unicode="p" glyph-name="p" horiz-adv-x="596" d="M424 259Q424 340 388 385T270 430Q253 430 235 429T198 422V123Q214 112 240 103T297 93Q363 93 393 138T424 259ZM548 261Q548 201 533 151T488 65T416 9T317 -11Q280 -11 249 -2T198 18V-185H77V506Q114
516 168 525T282 534Q344 534 393 515T476 461T529 375T548 261Z" />
<glyph unicode="q" glyph-name="q" horiz-adv-x="596" d="M172 259Q172 183 202 138T299 93Q329 93 355 102T398 123V422Q385 425 366 427T315 430Q248 430 210 385T172 259ZM48 261Q48 323 66 373T119 459T203 514T314 534Q376 534 430 525T519 506V-185H398V18Q377
7 347 -2T279 -11Q223 -11 180 8T108 64T64 150T48 261Z" />
<glyph unicode="r" glyph-name="r" horiz-adv-x="403" d="M375 414Q360 419 334 424T272 430Q252 430 230 426T198 419V0H77V498Q112 511 164 522T281 534Q293 534 309 533T341 529T372 523T396 516L375 414Z" />
<glyph unicode="s" glyph-name="s" horiz-adv-x="457" d="M208 87Q256 87 278 98T300 138Q300 164 277 181T199 218Q166 230 139 243T91 275T60 318T48 381Q48 453 101 494T245 536Q291 536 333 528T396 511L374 413Q354 422 323 429T251 437Q214 437 191 425T168
386Q168 373 172 363T188 345T217 328T261 310Q304 294 334 279T383 244T412 199T421 139Q421 64 366 26T207 -13Q138 -13 96 -2T37 17L58 118Q85 107 122 97T208 87Z" />
<glyph unicode="t" glyph-name="t" horiz-adv-x="418" d="M71 661L192 681V523H378V422H192V209Q192 146 212 119T280 92Q313 92 338 99T379 112L399 16Q378 7 344 -2T264 -12Q208 -12 171 3T111 46T80 115T71 208V661Z" />
<glyph unicode="u" glyph-name="u" horiz-adv-x="583" d="M506 16Q471 7 415 -2T292 -12Q229 -12 187 6T119 56T82 132T71 230V523H192V249Q192 165 216 129T302 93Q324 93 348 95T385 100V523H506V16Z" />
<glyph unicode="v" glyph-name="v" horiz-adv-x="526" d="M211 0Q161 103 109 236T13 523H142Q153 479 167 429T198 328T232 230T265 144Q280 182 297 229T330 327T362 428T388 523H513Q470 370 418 237T315 0H211Z" />
<glyph unicode="w" glyph-name="w" horiz-adv-x="780" d="M389 329Q366 241 340 158T287 0H188Q168 46 146 105T102 231T58 372T15 523H143Q152 481 164 433T189 334T216 235T244 147Q259 193 273 242T301 340T325 435T346 523H439Q448 482 459 436T482 340T509
242T539 147Q552 187 566 235T593 333T619 432T640 523H765Q744 446 722 372T678 231T634 105T591 0H493Q467 74 440 157T389 329Z" />
<glyph unicode="x" glyph-name="x" horiz-adv-x="529" d="M265 352L376 523H503L331 276Q385 206 434 135T516 0H385Q376 19 362 43T331 94T296 147T261 196Q226 151 193 97T137 0H13Q28 30 49 64T94 133T143 204T194 272L21 523H154L265 352Z" />
<glyph unicode="y" glyph-name="y" horiz-adv-x="519" d="M504 523Q423 225 316 -17Q296 -62 275 -94T228 -147T170 -177T96 -187Q68 -187 41 -181T-1 -168L21 -71Q57 -85 92 -85Q139 -85 165 -63T212 7Q155 117 103 247T9 523H138Q148 481 162 432T194 333T230
232T268 139Q300 228 328 328T379 523H504Z" />
<glyph unicode="z" glyph-name="z" horiz-adv-x="484" d="M443 438Q423 417 391 379T321 295T247 198T179 101H449V0H33V75Q55 115 88 162T156 256T225 347T287 422H46V523H443V438Z" />
<glyph unicode="{" glyph-name="braceleft" horiz-adv-x="348" d="M37 346Q83 346 104 374T126 442V589Q126 636 135 672T167 733T231 770T336 783H343V687Q314 687 294 683T262 669T245 641T239 596V453Q239 393 224 358T171 299Q208 276 223 240T239 145V1Q239
-26 244 -43T262 -70T294 -85T343 -89V-185Q276 -185 234 -173T168 -137T135 -76T126 8V156Q126 194 105 222T37 251V346Z" />
<glyph unicode="|" glyph-name="bar" horiz-adv-x="300" d="M93 783H207V-185H93V783Z" />
<glyph unicode="}" glyph-name="braceright" horiz-adv-x="348" d="M311 251Q265 251 244 223T222 156V8Q222 -40 213 -76T180 -136T114 -173T5 -185V-89Q63 -89 86 -71T109 1V145Q109 204 124 240T177 299Q140 322 125 357T109 453V596Q109 623 104 640T86 668T54
683T5 687V783H12Q76 783 117 771T181 734T213 673T222 589V442Q222 403 243 375T311 346V251Z" />
<glyph unicode="~" glyph-name="asciitilde" horiz-adv-x="568" d="M385 207Q354 207 328 219T276 247T228 274T181 287Q157 287 142 269T116 212L33 235Q38 259 47 286T74 337T118 377T181 393Q212 393 238 381T290 353T338 325T385 312Q410 312 425 331T450
388L533 365Q528 341 519 314T492 263T448 223T385 207Z" />
<glyph unicode="&#xa0;" glyph-name="uni00A0" horiz-adv-x="233" />
<glyph unicode="&#xa1;" glyph-name="exclamdown" horiz-adv-x="306" d="M218 -183H89V3Q89 85 95 154T111 294H197Q206 224 212 155T218 3V-183ZM233 444Q233 409 210 387T153 364Q120 364 97 386T73 444Q73 479 96 501T153 523Q187 523 210 501T233 444Z" />
<glyph unicode="&#xa2;" glyph-name="cent" horiz-adv-x="568" d="M252 36Q158 57 112 126T66 292Q66 338 78 380T115 455T173 512T252 547V692H365V555Q418 551 468 531L441 433Q420 441 394 447T337 453Q266 453 229 411T191 292Q191 217 226 175T344 132Q376
132 406 138T459 153L476 54Q459 46 429 39T365 29V-109H252V36Z" />
<glyph unicode="&#xa3;" glyph-name="sterling" horiz-adv-x="568" d="M259 383H437V285H259Q259 242 256 194T245 102H520V0H110Q140 153 140 285H50V383H140V449Q140 525 157 574T204 653T276 694T368 706Q410 706 442 698T505 677L475 579Q428 601 372 602Q346
602 325 596T290 573T267 528T259 456V383Z" />
<glyph unicode="&#xa4;" glyph-name="currency" horiz-adv-x="568" d="M284 541Q339 541 382 518L457 591L532 516L459 445Q484 404 484 347Q484 289 459 249L532 177L456 102L382 175Q339 152 284 152Q228 152 185 175L111 103L35 177L108 248Q83 289 83 347Q83
404 108 445L35 516L111 591L185 518Q228 541 284 541ZM284 241Q325 241 354 268T384 347Q384 397 355 424T284 452Q242 452 213 425T184 347Q184 296 213 269T284 241Z" />
<glyph unicode="&#xa5;" glyph-name="yen" horiz-adv-x="568" d="M500 108H345V0H224V108H69V193H224V277H69V362H187Q139 444 92 531T7 693H143Q177 619 212 546T287 403Q325 472 359 546T426 693H561Q519 612 476 530T381 362H500V277H345V193H500V108Z" />
<glyph unicode="&#xa6;" glyph-name="brokenbar" horiz-adv-x="300" d="M93 205H207V-185H93V205ZM93 783H207V393H93V783Z" />
<glyph unicode="&#xa7;" glyph-name="section" horiz-adv-x="509" d="M70 26Q108 10 149 1T234 -8Q249 -8 266 -6T297 2T321 18T331 46Q331 72 308 88T227 125Q189 138 156 152T98 187T59 237T44 308Q44 333 51 354T70 392T97 424T127 451Q103 471 90 496T76 552Q76
625 128 667T278 709Q326 709 372 699T451 677L422 578Q394 589 360 598T277 608Q239 608 217 596T194 558Q194 530 215 515T287 482Q327 468 360 454T418 418T456 369T470 300Q470 252 446 220T390 163Q451 119 451 48Q451 2 433 -28T385 -76T315 -101T234 -109Q171
-109 121 -97T40 -70L70 26ZM204 401Q181 384 167 363T153 318Q153 277 186 256T277 215L307 204Q330 221 344 242T358 287Q358 312 347 328T315 356T266 378T204 401Z" />
<glyph unicode="&#xa8;" glyph-name="dieresis" horiz-adv-x="405" d="M99 609Q72 609 52 627T32 676Q32 707 52 725T99 744Q126 744 146 726T167 676Q167 645 147 627T99 609ZM306 609Q279 609 259 627T238 676Q238 707 258 725T306 744Q333 744 353 726T373
676Q373 645 353 627T306 609Z" />
<glyph unicode="&#xa9;" glyph-name="copyright" horiz-adv-x="814" d="M752 347Q752 261 724 194T649 81T539 10T407 -15Q339 -15 277 9T167 80T91 194T62 347Q62 432 90 499T166 613T276 684T407 709Q476 709 538 685T648 614T724 500T752 347ZM665 347Q665
410 646 461T593 550T511 607T407 627Q350 627 303 607T222 550T169 462T150 347Q150 284 169 232T222 143T303 86T407 66Q464 66 511 86T592 143T646 232T665 347ZM421 150Q333 150 284 201T234 348Q234 394 248 431T287 493T346 531T420 545Q470 545 501 532T542
512L514 438Q501 446 480 453T426 461Q384 461 357 433T330 350Q330 326 335 305T352 268T382 243T427 234Q462 234 484 241T522 256L546 180Q534 174 501 162T421 150Z" />
<glyph unicode="&#xaa;" glyph-name="ordfeminine" horiz-adv-x="402" d="M126 437Q126 422 133 413T153 400T181 394T213 392Q230 392 243 393T264 396V484Q255 486 241 487T212 489Q200 489 185 488T157 481T135 465T126 437ZM194 707Q238 707 268 697T317 667T344
621T352 561V334Q329 329 287 324T195 318Q123 318 79 345T35 440Q35 473 48 495T83 530T135 550T198 556Q215 556 231 555T264 551V557Q264 586 248 607T186 628Q160 628 133 625T85 614L72 690Q91 696 125 701T194 707Z" />
<glyph unicode="&#xab;" glyph-name="guillemotleft" horiz-adv-x="552" d="M515 97L426 53L266 284L426 514L515 470L409 284L515 97ZM276 97L187 53L27 284L187 514L276 470L170 284L276 97Z" />
<glyph unicode="&#xac;" glyph-name="logicalnot" horiz-adv-x="568" d="M516 47H408V295H52V397H516V47Z" />
<glyph unicode="&#xad;" glyph-name="uni00AD" horiz-adv-x="315" d="M23 341H292V230H23V341Z" />
<glyph unicode="&#xae;" glyph-name="registered" horiz-adv-x="814" d="M752 347Q752 261 724 194T649 81T539 10T407 -15Q339 -15 277 9T167 80T91 194T62 347Q62 432 90 499T166 613T276 684T407 709Q476 709 538 685T648 614T724 500T752 347ZM665 347Q665
410 646 461T593 550T511 607T407 627Q350 627 303 607T222 550T169 462T150 347Q150 284 169 232T222 143T303 86T407 66Q464 66 511 86T592 143T646 232T665 347ZM487 162Q467 204 447 238T409 296H355V162H271V527Q302 535 332 538T385 541Q468 541 510 510T553
416Q553 382 537 357T489 317Q509 288 532 250T577 162H487ZM355 364H383Q422 364 445 374T468 417Q468 445 447 456T392 468Q383 468 375 468T355 466V364Z" />
<glyph unicode="&#xaf;" glyph-name="overscore" horiz-adv-x="389" d="M346 718V631H43V718H346Z" />
<glyph unicode="&#xb0;" glyph-name="degree" horiz-adv-x="347" d="M173 778Q203 778 230 768T279 739T312 693T324 631Q324 597 312 570T279 523T231 494T173 484Q143 484 116 494T68 523T35 569T23 631Q23 665 35 692T68 739T116 768T173 778ZM173 565Q199
565 218 582T237 631Q237 662 218 680T173 698Q147 698 128 680T109 631Q109 600 128 583T173 565Z" />
<glyph unicode="&#xb1;" glyph-name="plusminus" horiz-adv-x="568" d="M52 437H230V622H338V437H516V335H338V149H230V335H52V437ZM52 102H516V0H52V102Z" />
<glyph unicode="&#xb2;" glyph-name="twosuperior" horiz-adv-x="363" d="M309 592Q309 571 302 553T280 517T246 480T198 437Q183 424 170 410T151 385H322V308H45Q44 327 45 343Q49 391 76 426T147 497Q177 523 196 544T215 586Q215 606 203 616T167 627Q135
627 111 614T72 589L28 653Q49 673 86 691T169 709Q243 709 276 678T309 592Z" />
<glyph unicode="&#xb3;" glyph-name="threesuperior" horiz-adv-x="363" d="M154 378Q199 378 215 391T232 426Q232 454 207 466T142 478H112V548H145Q171 548 193 558T215 592Q215 631 160 631Q134 631 112 623T70 605L38 672Q58 686 94 697T165 709Q203 709
229 701T272 677T296 642T303 600Q303 554 254 522Q288 508 305 483T323 425Q323 399 314 376T285 336T233 310T155 300Q123 300 88 307T32 325L51 400Q80 389 103 384T154 378Z" />
<glyph unicode="&#xb4;" glyph-name="acute" horiz-adv-x="392" d="M316 737L153 579L93 633L240 808L316 737Z" />
<glyph unicode="&#xb5;" glyph-name="mu" horiz-adv-x="591" d="M198 523V243Q198 200 204 172T224 126T259 101T309 93Q332 93 356 95T393 100V523H514V16Q478 7 426 -2T312 -11Q271 -11 242 -3T192 21Q195 -3 196 -29T197 -91V-176H77V523H198Z" />
<glyph unicode="&#xb6;" glyph-name="paragraph" horiz-adv-x="683" d="M267 260Q155 273 98 324T40 477Q40 586 127 643T368 700Q420 700 479 695T586 679V-185H477V596Q466 598 448 599T416 600Q406 600 396 600T377 599V-185H267V260Z" />
<glyph unicode="&#xb7;" glyph-name="middot" horiz-adv-x="210" d="M186 294Q186 259 163 237T106 215Q72 215 49 237T26 294Q26 329 49 351T106 374Q139 374 162 352T186 294Z" />
<glyph unicode="&#xb8;" glyph-name="cedilla" horiz-adv-x="390" d="M214 -39Q246 -54 258 -73T271 -120Q271 -155 241 -180T151 -205Q103 -205 66 -192L80 -120Q90 -123 106 -127T139 -131Q156 -131 165 -125T175 -107Q175 -91 161 -84T133 -71L123 -68Q126
-58 132 -45T144 -19T155 4T163 20H243Q237 9 228 -9T214 -39Z" />
<glyph unicode="&#xb9;" glyph-name="onesuperior" horiz-adv-x="363" d="M47 619Q87 634 125 655T191 701H259V308H167V590Q147 578 122 568T72 549L47 619V619Z" />
<glyph unicode="&#xba;" glyph-name="ordmasculine" horiz-adv-x="455" d="M415 512Q415 467 401 431T363 370T304 331T228 317Q187 317 153 330T93 369T54 431T40 512Q40 557 54 593T93 655T152 694T228 708Q269 708 303 695T362 656T401 594T415 512ZM321 512Q321
564 297 594T228 625Q183 625 159 595T134 512Q134 461 158 431T228 400Q273 400 297 430T321 512Z" />
<glyph unicode="&#xbb;" glyph-name="guillemotright" horiz-adv-x="552" d="M143 284L37 470L126 514L286 284L126 53L37 97L143 284ZM382 284L276 470L365 514L525 284L365 53L276 97L382 284Z" />
<glyph unicode="&#xbc;" glyph-name="onequarter" horiz-adv-x="878" d="M677 693L304 0H191L565 693H677ZM292 619Q332 634 370 655T436 701H504V308H412V590Q392 578 367 568T317 549L292 619V619ZM728 299Q702 270 675 234T628 161H728V299ZM809 161H857V90H809V1H728V90H538V149Q555
179 576 211T622 275T673 337T727 394H809V161Z" />
<glyph unicode="&#xbd;" glyph-name="onehalf" horiz-adv-x="878" d="M652 693L279 0H166L540 693H652ZM292 619Q332 634 370 655T436 701H504V308H412V590Q392 578 367 568T317 549L292 619V619ZM820 285Q820 264 813 246T791 210T757 173T709 130Q694 117 681
103T662 78H833V1H556Q555 20 556 36Q560 84 587 119T658 190Q688 216 707 237T726 279Q726 299 714 309T678 320Q646 320 622 307T583 282L539 346Q560 366 597 384T680 402Q754 402 787 371T820 285Z" />
<glyph unicode="&#xbe;" glyph-name="threequarters" horiz-adv-x="878" d="M695 693L322 0H209L583 693H695ZM728 299Q702 270 675 234T628 161H728V299ZM809 161H857V90H809V1H728V90H538V149Q555 179 576 211T622 275T673 337T727 394H809V161ZM407 378Q452
378 468 391T485 426Q485 454 460 466T395 478H365V548H398Q424 548 446 558T468 592Q468 631 413 631Q387 631 365 623T323 605L291 672Q311 686 347 697T418 709Q456 709 482 701T525 677T549 642T556 600Q556 554 507 522Q541 508 558 483T576 425Q576 399 567
376T538 336T486 310T408 300Q376 300 341 307T285 325L304 400Q333 389 356 384T407 378Z" />
<glyph unicode="&#xbf;" glyph-name="questiondown" horiz-adv-x="424" d="M240 -96Q275 -96 307 -88T374 -60L408 -153Q371 -174 324 -186T226 -199Q166 -199 127 -183T65 -141T33 -86T24 -28Q24 6 36 33T68 83T109 126T150 168T181 214T194 268Q194 273 194
279T193 292H297Q299 282 300 271T301 249Q301 216 290 190T262 142T226 101T189 63T161 24T150 -20Q150 -53 172 -74T240 -96ZM162 444Q162 479 185 501T242 523Q275 523 298 501T322 444Q322 409 299 387T242 364Q208 364 185 386T162 444Z" />
<glyph unicode="&#xc0;" glyph-name="Agrave" horiz-adv-x="684" d="M543 0Q529 41 514 81T485 163H193Q179 121 165 81T136 0H5Q44 111 79 205T147 383T214 543T282 693H401Q436 619 469 543T535 383T604 205T679 0H543ZM339 559Q316 506 287 430T225 265H453Q421
354 391 431T339 559ZM262 970L407 795L347 741L185 900L262 970Z" />
<glyph unicode="&#xc1;" glyph-name="Aacute" horiz-adv-x="684" d="M543 0Q529 41 514 81T485 163H193Q179 121 165 81T136 0H5Q44 111 79 205T147 383T214 543T282 693H401Q436 619 469 543T535 383T604 205T679 0H543ZM339 559Q316 506 287 430T225 265H453Q421
354 391 431T339 559ZM501 899L338 741L278 795L425 970L501 899Z" />
<glyph unicode="&#xc2;" glyph-name="Acircumflex" horiz-adv-x="684" d="M543 0Q529 41 514 81T485 163H193Q179 121 165 81T136 0H5Q44 111 79 205T147 383T214 543T282 693H401Q436 619 469 543T535 383T604 205T679 0H543ZM339 559Q316 506 287 430T225 265H453Q421
354 391 431T339 559ZM487 796L440 743L341 824L243 743L195 796L341 936L487 796Z" />
<glyph unicode="&#xc3;" glyph-name="Atilde" horiz-adv-x="684" d="M543 0Q529 41 514 81T485 163H193Q179 121 165 81T136 0H5Q44 111 79 205T147 383T214 543T282 693H401Q436 619 469 543T535 383T604 205T679 0H543ZM339 559Q316 506 287 430T225 265H453Q421
354 391 431T339 559ZM512 855T503 839T479 808T447 783T407 773Q389 773 373 778T342 791T312 803T283 809Q264 809 251 796T229 766L168 802Q173 816 182 832T206 863T239 888T279 898Q297 898 313 892T344 880T374 867T403 861Q422 861 435 874T457 905L518
869Q512 855 503 839Z" />
<glyph unicode="&#xc4;" glyph-name="Adieresis" horiz-adv-x="684" d="M543 0Q529 41 514 81T485 163H193Q179 121 165 81T136 0H5Q44 111 79 205T147 383T214 543T282 693H401Q436 619 469 543T535 383T604 205T679 0H543ZM339 559Q316 506 287 430T225 265H453Q421
354 391 431T339 559ZM234 767Q207 767 187 785T167 834Q167 865 187 883T234 902Q261 902 281 884T302 834Q302 803 282 785T234 767ZM441 767Q414 767 394 785T373 834Q373 865 393 883T441 902Q468 902 488 884T508 834Q508 803 488 785T441 767Z" />
<glyph unicode="&#xc5;" glyph-name="Aring" horiz-adv-x="684" d="M452 752Q452 723 442 702T413 667Q446 596 477 523T541 368T607 197T679 0H543Q529 41 514 81T485 163H193Q179 121 165 81T136 0H5Q42 106 75 196T141 368T204 522T269 667Q252 681 242 702T231
752Q231 777 240 797T264 831T299 852T341 860Q363 860 383 853T418 832T443 798T452 752ZM339 559Q316 506 287 430T225 265H453Q421 354 391 431T339 559ZM392 752Q392 777 377 791T341 806Q321 806 306 792T291 752Q291 726 306 712T341 698Q362 698 377 712T392
752Z" />
<glyph unicode="&#xc6;" glyph-name="AE" horiz-adv-x="957" d="M478 171H231Q208 129 184 86T140 0H3Q121 217 225 386T426 693H899V587H601V414H864V311H601V106H923V0H478V171ZM478 579Q457 549 433 513T384 437T334 355T285 272H478V579Z" />
<glyph unicode="&#xc7;" glyph-name="Ccedilla" horiz-adv-x="638" d="M401 -39Q433 -54 445 -73T458 -120Q458 -155 428 -180T338 -205Q290 -205 253 -192L267 -120Q277 -123 293 -127T326 -131Q343 -131 352 -125T362 -107Q362 -91 348 -84T320 -71L310 -68Q314
-56 320 -41T334 -11Q203 5 130 97T57 347Q57 434 83 501T156 614T264 685T397 709Q440 709 475 703T536 688T579 671T603 658L566 555Q542 570 498 583T401 597Q356 597 317 582T250 535T205 457T189 348Q189 293 201 247T240 168T306 116T402 97Q469 97 511 110T576
136L610 33Q588 19 536 4T412 -15Q408 -22 406 -28T401 -39Z" />
<glyph unicode="&#xc8;" glyph-name="Egrave" horiz-adv-x="586" d="M83 0V693H528V586H209V415H493V310H209V107H552V0H83ZM234 970L379 795L319 741L157 900L234 970Z" />
<glyph unicode="&#xc9;" glyph-name="Eacute" horiz-adv-x="586" d="M83 0V693H528V586H209V415H493V310H209V107H552V0H83ZM479 899L316 741L256 795L403 970L479 899Z" />
<glyph unicode="&#xca;" glyph-name="Ecircumflex" horiz-adv-x="586" d="M83 0V693H528V586H209V415H493V310H209V107H552V0H83ZM452 796L405 743L306 824L208 743L160 796L306 936L452 796Z" />
<glyph unicode="&#xcb;" glyph-name="Edieresis" horiz-adv-x="586" d="M83 0V693H528V586H209V415H493V310H209V107H552V0H83ZM200 767Q173 767 153 785T133 834Q133 865 153 883T200 902Q227 902 247 884T268 834Q268 803 248 785T200 767ZM407 767Q380 767
360 785T339 834Q339 865 359 883T407 902Q434 902 454 884T474 834Q474 803 454 785T407 767Z" />
<glyph unicode="&#xcc;" glyph-name="Igrave" horiz-adv-x="292" d="M83 693H209V0H83V693ZM64 970L209 795L149 741L-13 900L64 970Z" />
<glyph unicode="&#xcd;" glyph-name="Iacute" horiz-adv-x="292" d="M83 693H209V0H83V693ZM309 899L146 741L86 795L233 970L309 899Z" />
<glyph unicode="&#xce;" glyph-name="Icircumflex" horiz-adv-x="292" d="M83 693H209V0H83V693ZM293 796L246 743L147 824L49 743L1 796L147 936L293 796Z" />
<glyph unicode="&#xcf;" glyph-name="Idieresis" horiz-adv-x="292" d="M83 693H209V0H83V693ZM44 767Q17 767 -3 785T-23 834Q-23 865 -3 883T44 902Q71 902 91 884T112 834Q112 803 92 785T44 767ZM251 767Q224 767 204 785T183 834Q183 865 203 883T251 902Q278
902 298 884T318 834Q318 803 298 785T251 767Z" />
<glyph unicode="&#xd0;" glyph-name="Eth" horiz-adv-x="740" d="M16 408H97V683Q145 694 199 697T295 700Q382 700 454 680T577 616T657 506T685 347Q685 257 657 191T578 80T454 14T293 -8Q251 -8 198 -5T97 10V313H16V408ZM223 408H351V313H223V104Q234 103
252 103T301 102Q428 102 490 166T553 347Q553 465 492 528T303 591Q247 591 223 588V408Z" />
<glyph unicode="&#xd1;" glyph-name="Ntilde" horiz-adv-x="740" d="M550 0Q516 57 474 122T387 254T296 383T207 496V0H83V693H186Q226 651 272 594T364 474T454 350T532 233V693H657V0H550ZM540 855T531 839T507 808T475 783T435 773Q417 773 401 778T370 791T340
803T311 809Q292 809 279 796T257 766L196 802Q201 816 210 832T234 863T267 888T307 898Q325 898 341 892T372 880T402 867T431 861Q450 861 463 874T485 905L546 869Q540 855 531 839Z" />
<glyph unicode="&#xd2;" glyph-name="Ograve" horiz-adv-x="782" d="M186 347Q186 290 200 244T240 165T305 114T391 96Q438 96 476 114T540 164T581 243T595 347Q595 404 581 450T541 529T476 580T391 598Q343 598 305 580T241 529T200 450T186 347ZM727 347Q727
258 701 190T629 77T522 8T392 -15Q323 -15 262 8T155 76T82 190T55 347Q55 436 82 503T155 617T263 686T392 709Q460 709 521 686T627 617T700 504T727 347ZM308 970L453 795L393 741L231 900L308 970Z" />
<glyph unicode="&#xd3;" glyph-name="Oacute" horiz-adv-x="782" d="M186 347Q186 290 200 244T240 165T305 114T391 96Q438 96 476 114T540 164T581 243T595 347Q595 404 581 450T541 529T476 580T391 598Q343 598 305 580T241 529T200 450T186 347ZM727 347Q727
258 701 190T629 77T522 8T392 -15Q323 -15 262 8T155 76T82 190T55 347Q55 436 82 503T155 617T263 686T392 709Q460 709 521 686T627 617T700 504T727 347ZM549 899L386 741L326 795L473 970L549 899Z" />
<glyph unicode="&#xd4;" glyph-name="Ocircumflex" horiz-adv-x="782" d="M186 347Q186 290 200 244T240 165T305 114T391 96Q438 96 476 114T540 164T581 243T595 347Q595 404 581 450T541 529T476 580T391 598Q343 598 305 580T241 529T200 450T186 347ZM727
347Q727 258 701 190T629 77T522 8T392 -15Q323 -15 262 8T155 76T82 190T55 347Q55 436 82 503T155 617T263 686T392 709Q460 709 521 686T627 617T700 504T727 347ZM537 796L490 743L391 824L293 743L245 796L391 936L537 796Z" />
<glyph unicode="&#xd5;" glyph-name="Otilde" horiz-adv-x="782" d="M186 347Q186 290 200 244T240 165T305 114T391 96Q438 96 476 114T540 164T581 243T595 347Q595 404 581 450T541 529T476 580T391 598Q343 598 305 580T241 529T200 450T186 347ZM727 347Q727
258 701 190T629 77T522 8T392 -15Q323 -15 262 8T155 76T82 190T55 347Q55 436 82 503T155 617T263 686T392 709Q460 709 521 686T627 617T700 504T727 347ZM561 855T552 839T528 808T496 783T456 773Q438 773 422 778T391 791T361 803T332 809Q313 809 300 796T278
766L217 802Q222 816 231 832T255 863T288 888T328 898Q346 898 362 892T393 880T423 867T452 861Q471 861 484 874T506 905L567 869Q561 855 552 839Z" />
<glyph unicode="&#xd6;" glyph-name="Odieresis" horiz-adv-x="782" d="M186 347Q186 290 200 244T240 165T305 114T391 96Q438 96 476 114T540 164T581 243T595 347Q595 404 581 450T541 529T476 580T391 598Q343 598 305 580T241 529T200 450T186 347ZM727 347Q727
258 701 190T629 77T522 8T392 -15Q323 -15 262 8T155 76T82 190T55 347Q55 436 82 503T155 617T263 686T392 709Q460 709 521 686T627 617T700 504T727 347ZM284 767Q257 767 237 785T217 834Q217 865 237 883T284 902Q311 902 331 884T352 834Q352 803 332 785T284
767ZM491 767Q464 767 444 785T423 834Q423 865 443 883T491 902Q518 902 538 884T558 834Q558 803 538 785T491 767Z" />
<glyph unicode="&#xd7;" glyph-name="multiply" horiz-adv-x="568" d="M425 507L496 435L355 294L496 154L425 82L284 223L143 82L72 154L213 294L72 435L143 507L284 366L425 507Z" />
<glyph unicode="&#xd8;" glyph-name="Oslash" horiz-adv-x="782" d="M727 347Q727 258 701 190T629 77T522 8T392 -15Q341 -15 294 -3T207 35L149 -41L76 14L138 94Q99 139 77 202T55 347Q55 436 82 503T155 617T263 686T392 709Q442 709 488 697T574 659L632
734L706 679L644 599Q682 554 704 491T727 347ZM186 347Q186 260 218 199L501 565Q454 598 391 598Q343 598 305 580T241 529T200 450T186 347ZM595 347Q595 390 587 427T563 494L280 128Q326 96 391 96Q438 96 476 114T540 164T581 243T595 347Z" />
<glyph unicode="&#xd9;" glyph-name="Ugrave" horiz-adv-x="703" d="M350 -15Q279 -15 228 5T144 63T94 150T78 260V693H205V272Q205 225 215 192T245 137T291 106T351 96Q384 96 411 106T457 137T487 191T498 272V693H625V260Q625 200 609 150T559 63T473 6T350
-15ZM258 970L403 795L343 741L181 900L258 970Z" />
<glyph unicode="&#xda;" glyph-name="Uacute" horiz-adv-x="703" d="M350 -15Q279 -15 228 5T144 63T94 150T78 260V693H205V272Q205 225 215 192T245 137T291 106T351 96Q384 96 411 106T457 137T487 191T498 272V693H625V260Q625 200 609 150T559 63T473 6T350
-15ZM519 899L356 741L296 795L443 970L519 899Z" />
<glyph unicode="&#xdb;" glyph-name="Ucircumflex" horiz-adv-x="703" d="M350 -15Q279 -15 228 5T144 63T94 150T78 260V693H205V272Q205 225 215 192T245 137T291 106T351 96Q384 96 411 106T457 137T487 191T498 272V693H625V260Q625 200 609 150T559 63T473
6T350 -15ZM497 796L450 743L351 824L253 743L205 796L351 936L497 796Z" />
<glyph unicode="&#xdc;" glyph-name="Udieresis" horiz-adv-x="703" d="M350 -15Q279 -15 228 5T144 63T94 150T78 260V693H205V272Q205 225 215 192T245 137T291 106T351 96Q384 96 411 106T457 137T487 191T498 272V693H625V260Q625 200 609 150T559 63T473
6T350 -15ZM248 767Q221 767 201 785T181 834Q181 865 201 883T248 902Q275 902 295 884T316 834Q316 803 296 785T248 767ZM455 767Q428 767 408 785T387 834Q387 865 407 883T455 902Q482 902 502 884T522 834Q522 803 502 785T455 767Z" />
<glyph unicode="&#xdd;" glyph-name="Yacute" horiz-adv-x="625" d="M316 386Q361 461 404 538T482 693H622Q566 587 506 483T376 272V0H250V270Q181 377 120 482T3 693H151Q186 615 228 538T316 386ZM463 899L300 741L240 795L387 970L463 899Z" />
<glyph unicode="&#xde;" glyph-name="Thorn" horiz-adv-x="628" d="M286 589Q430 589 511 535T592 363Q592 302 571 259T508 188T408 148T273 135H210V0H84V693H210V586Q228 588 248 588T286 589ZM279 481Q256 481 237 481T210 479V241H271Q316 241 351 246T411
266T447 304T460 364Q460 398 447 421T410 457T353 475T279 481Z" />
<glyph unicode="&#xdf;" glyph-name="germandbls" horiz-adv-x="634" d="M515 613Q515 568 499 539T462 487Q439 461 422 442T405 396Q405 381 412 370T432 350T461 333T495 315Q517 303 537 289T572 257T595 214T604 158Q604 77 557 33T406 -12Q372 -12 335 -5T262
16L283 116Q291 113 304 108T333 99T366 91T401 88Q443 88 463 106T483 156Q483 188 459 210T384 256Q353 270 334 284T304 314T289 345T285 380Q285 420 305 449T351 505Q369 525 384 546T399 594Q399 633 376 653T308 673Q250 673 223 639T196 544V0H77V543Q77
595 91 637T133 711T203 759T302 776Q358 776 398 763T465 728T503 677T515 613Z" />
<glyph unicode="&#xe0;" glyph-name="agrave" horiz-adv-x="534" d="M261 85Q317 85 346 91V225Q336 228 317 231T275 234Q255 234 235 231T198 220T171 198T161 161Q161 118 188 102T261 85ZM251 536Q311 536 352 521T417 479T452 414T463 329V12Q435 6 379 -2T251
-11Q204 -11 165 -2T99 27T56 79T40 158Q40 203 57 234T105 284T174 312T257 321Q277 321 299 319T346 310V330Q346 351 341 370T324 403T291 426T239 434Q197 434 162 428T105 414L90 512Q113 520 157 528T251 536ZM199 808L344 633L284 579L122 738L199 808Z"
/>
<glyph unicode="&#xe1;" glyph-name="aacute" horiz-adv-x="534" d="M261 85Q317 85 346 91V225Q336 228 317 231T275 234Q255 234 235 231T198 220T171 198T161 161Q161 118 188 102T261 85ZM251 536Q311 536 352 521T417 479T452 414T463 329V12Q435 6 379 -2T251
-11Q204 -11 165 -2T99 27T56 79T40 158Q40 203 57 234T105 284T174 312T257 321Q277 321 299 319T346 310V330Q346 351 341 370T324 403T291 426T239 434Q197 434 162 428T105 414L90 512Q113 520 157 528T251 536ZM402 737L239 579L179 633L326 808L402 737Z"
/>
<glyph unicode="&#xe2;" glyph-name="acircumflex" horiz-adv-x="534" d="M261 85Q317 85 346 91V225Q336 228 317 231T275 234Q255 234 235 231T198 220T171 198T161 161Q161 118 188 102T261 85ZM251 536Q311 536 352 521T417 479T452 414T463 329V12Q435 6
379 -2T251 -11Q204 -11 165 -2T99 27T56 79T40 158Q40 203 57 234T105 284T174 312T257 321Q277 321 299 319T346 310V330Q346 351 341 370T324 403T291 426T239 434Q197 434 162 428T105 414L90 512Q113 520 157 528T251 536ZM415 635L368 582L269 663L171 582L123
635L269 775L415 635Z" />
<glyph unicode="&#xe3;" glyph-name="atilde" horiz-adv-x="534" d="M261 85Q317 85 346 91V225Q336 228 317 231T275 234Q255 234 235 231T198 220T171 198T161 161Q161 118 188 102T261 85ZM251 536Q311 536 352 521T417 479T452 414T463 329V12Q435 6 379 -2T251
-11Q204 -11 165 -2T99 27T56 79T40 158Q40 203 57 234T105 284T174 312T257 321Q277 321 299 319T346 310V330Q346 351 341 370T324 403T291 426T239 434Q197 434 162 428T105 414L90 512Q113 520 157 528T251 536ZM438 696T429 680T405 649T373 624T333 614Q315
614 299 619T268 632T238 644T209 650Q190 650 177 637T155 607L94 643Q99 657 108 673T132 704T165 729T205 739Q223 739 239 733T270 721T300 708T329 702Q348 702 361 715T383 746L444 710Q438 696 429 680Z" />
<glyph unicode="&#xe4;" glyph-name="adieresis" horiz-adv-x="534" d="M261 85Q317 85 346 91V225Q336 228 317 231T275 234Q255 234 235 231T198 220T171 198T161 161Q161 118 188 102T261 85ZM251 536Q311 536 352 521T417 479T452 414T463 329V12Q435 6 379
-2T251 -11Q204 -11 165 -2T99 27T56 79T40 158Q40 203 57 234T105 284T174 312T257 321Q277 321 299 319T346 310V330Q346 351 341 370T324 403T291 426T239 434Q197 434 162 428T105 414L90 512Q113 520 157 528T251 536ZM162 609Q135 609 115 627T95 676Q95
707 115 725T162 744Q189 744 209 726T230 676Q230 645 210 627T162 609ZM369 609Q342 609 322 627T301 676Q301 707 321 725T369 744Q396 744 416 726T436 676Q436 645 416 627T369 609Z" />
<glyph unicode="&#xe5;" glyph-name="aring" horiz-adv-x="534" d="M261 85Q317 85 346 91V225Q336 228 317 231T275 234Q255 234 235 231T198 220T171 198T161 161Q161 118 188 102T261 85ZM251 536Q311 536 352 521T417 479T452 414T463 329V12Q435 6 379 -2T251
-11Q204 -11 165 -2T99 27T56 79T40 158Q40 203 57 234T105 284T174 312T257 321Q277 321 299 319T346 310V330Q346 351 341 370T324 403T291 426T239 434Q197 434 162 428T105 414L90 512Q113 520 157 528T251 536ZM381 688Q381 662 372 642T348 608T312 587T270
579Q248 579 228 586T193 608T169 642T160 688Q160 713 169 733T193 767T228 788T270 796Q292 796 312 789T347 768T372 734T381 688ZM320 688Q320 712 305 725T270 739Q251 739 236 726T221 688Q221 663 236 650T270 637Q290 637 305 650T320 688Z" />
<glyph unicode="&#xe6;" glyph-name="ae" horiz-adv-x="869" d="M253 536Q319 536 358 516T421 456Q455 498 499 517T592 536Q698 536 758 469T818 269Q818 257 817 246T816 224H471Q476 161 515 127T629 92Q674 92 710 100T768 117L784 18Q774 13 757 8T717 -2T668
-10T614 -13Q556 -13 513 1T438 40Q399 15 353 2T253 -12Q205 -12 166 -3T98 27T55 80T40 158Q40 203 58 234T107 284T177 312T261 321Q289 321 315 317T352 310V332Q352 353 347 372T329 404T295 426T242 434Q200 434 165 428T106 414L91 512Q114 520 158 528T253
536ZM267 85Q309 85 336 92T381 110Q367 142 361 169T352 226Q339 229 320 231T279 234Q258 234 237 231T199 220T172 198T161 161Q161 118 189 102T267 85ZM697 313Q697 338 690 360T670 399T637 425T590 435Q562 435 541 425T506 397T483 358T472 313H697Z" />
<glyph unicode="&#xe7;" glyph-name="ccedilla" horiz-adv-x="472" d="M317 -39Q349 -54 361 -73T374 -120Q374 -155 344 -180T254 -205Q206 -205 169 -192L183 -120Q193 -123 209 -127T242 -131Q259 -131 268 -125T278 -107Q278 -91 264 -84T236 -71L226 -68Q230
-55 237 -39T251 -8Q199 1 161 24T98 82T61 163T48 261Q48 319 66 369T117 457T199 515T307 536Q381 536 447 509L421 410Q400 419 374 425T317 431Q246 431 209 387T172 261Q172 183 207 138T325 92Q356 92 386 98T438 113L455 13Q437 4 402 -3T329 -12Q325 -20
322 -27T317 -39Z" />
<glyph unicode="&#xe8;" glyph-name="egrave" horiz-adv-x="571" d="M48 259Q48 328 68 380T123 466T201 518T291 536Q399 536 459 469T520 269Q520 259 520 247T518 224H173Q178 161 217 127T332 92Q376 92 412 100T470 117L486 18Q476 13 459 8T419 -2T370 -10T317
-13Q248 -13 197 7T113 64T64 150T48 259ZM399 313Q399 338 392 360T372 399T339 425T292 435Q264 435 243 425T208 397T185 358T174 313H399ZM235 808L380 633L320 579L158 738L235 808Z" />
<glyph unicode="&#xe9;" glyph-name="eacute" horiz-adv-x="571" d="M48 259Q48 328 68 380T123 466T201 518T291 536Q399 536 459 469T520 269Q520 259 520 247T518 224H173Q178 161 217 127T332 92Q376 92 412 100T470 117L486 18Q476 13 459 8T419 -2T370 -10T317
-13Q248 -13 197 7T113 64T64 150T48 259ZM399 313Q399 338 392 360T372 399T339 425T292 435Q264 435 243 425T208 397T185 358T174 313H399ZM420 737L257 579L197 633L344 808L420 737Z" />
<glyph unicode="&#xea;" glyph-name="ecircumflex" horiz-adv-x="571" d="M48 259Q48 328 68 380T123 466T201 518T291 536Q399 536 459 469T520 269Q520 259 520 247T518 224H173Q178 161 217 127T332 92Q376 92 412 100T470 117L486 18Q476 13 459 8T419 -2T370
-10T317 -13Q248 -13 197 7T113 64T64 150T48 259ZM399 313Q399 338 392 360T372 399T339 425T292 435Q264 435 243 425T208 397T185 358T174 313H399ZM433 635L386 582L287 663L189 582L141 635L287 775L433 635Z" />
<glyph unicode="&#xeb;" glyph-name="edieresis" horiz-adv-x="571" d="M48 259Q48 328 68 380T123 466T201 518T291 536Q399 536 459 469T520 269Q520 259 520 247T518 224H173Q178 161 217 127T332 92Q376 92 412 100T470 117L486 18Q476 13 459 8T419 -2T370
-10T317 -13Q248 -13 197 7T113 64T64 150T48 259ZM399 313Q399 338 392 360T372 399T339 425T292 435Q264 435 243 425T208 397T185 358T174 313H399ZM187 609Q160 609 140 627T120 676Q120 707 140 725T187 744Q214 744 234 726T255 676Q255 645 235 627T187
609ZM394 609Q367 609 347 627T326 676Q326 707 346 725T394 744Q421 744 441 726T461 676Q461 645 441 627T394 609Z" />
<glyph unicode="&#xec;" glyph-name="igrave" horiz-adv-x="276" d="M199 0H78V523H199V0ZM328 808L473 633L413 579L251 738L328 808Z" />
<glyph unicode="&#xed;" glyph-name="iacute" horiz-adv-x="276" d="M199 0H78V523H199V0ZM538 737L375 579L315 633L462 808L538 737Z" />
<glyph unicode="&#xee;" glyph-name="icircumflex" horiz-adv-x="276" d="M199 0H78V523H199V0ZM541 635L494 582L395 663L297 582L249 635L395 775L541 635Z" />
<glyph unicode="&#xef;" glyph-name="idieresis" horiz-adv-x="276" d="M199 0H78V523H199V0ZM295 609Q268 609 248 627T228 676Q228 707 248 725T295 744Q322 744 342 726T363 676Q363 645 343 627T295 609ZM502 609Q475 609 455 627T434 676Q434 707 454 725T502
744Q529 744 549 726T569 676Q569 645 549 627T502 609Z" />
<glyph unicode="&#xf0;" glyph-name="eth" horiz-adv-x="591" d="M469 611Q506 545 525 472T544 318Q544 248 531 188T487 82T409 12T290 -14Q229 -14 184 7T108 63T62 144T47 241Q47 296 62 341T107 418T181 467T282 485Q315 485 350 476T413 450Q401 517 364
575L248 536L222 610L313 641Q281 676 234 709L305 778Q333 761 363 736T421 677L541 718L567 645L469 611ZM421 319Q421 322 421 329T420 343Q391 368 360 376T300 385Q264 385 239 374T199 344T176 298T169 242Q169 210 176 183T199 136T237 104T290 92Q331 92
356 109T396 158T416 230T421 319Z" />
<glyph unicode="&#xf1;" glyph-name="ntilde" horiz-adv-x="585" d="M77 506Q112 516 168 525T292 534Q356 534 399 517T467 468T503 392T514 294V0H393V275Q393 317 388 346T370 394T336 421T283 430Q260 430 235 427T198 422V0H77V506ZM464 696T455 680T431
649T399 624T359 614Q341 614 325 619T294 632T264 644T235 650Q216 650 203 637T181 607L120 643Q125 657 134 673T158 704T191 729T231 739Q249 739 265 733T296 721T326 708T355 702Q374 702 387 715T409 746L470 710Q464 696 455 680Z" />
<glyph unicode="&#xf2;" glyph-name="ograve" horiz-adv-x="598" d="M550 262Q550 200 532 149T481 62T402 6T299 -14Q243 -14 197 6T118 62T67 149T48 262Q48 324 66 374T118 461T198 516T299 536Q354 536 400 517T480 461T531 375T550 262ZM426 262Q426 340
393 385T299 431Q239 431 206 386T172 262Q172 183 205 137T299 91Q359 91 392 137T426 262ZM251 808L396 633L336 579L174 738L251 808Z" />
<glyph unicode="&#xf3;" glyph-name="oacute" horiz-adv-x="598" d="M550 262Q550 200 532 149T481 62T402 6T299 -14Q243 -14 197 6T118 62T67 149T48 262Q48 324 66 374T118 461T198 516T299 536Q354 536 400 517T480 461T531 375T550 262ZM426 262Q426 340
393 385T299 431Q239 431 206 386T172 262Q172 183 205 137T299 91Q359 91 392 137T426 262ZM430 737L267 579L207 633L354 808L430 737Z" />
<glyph unicode="&#xf4;" glyph-name="ocircumflex" horiz-adv-x="598" d="M550 262Q550 200 532 149T481 62T402 6T299 -14Q243 -14 197 6T118 62T67 149T48 262Q48 324 66 374T118 461T198 516T299 536Q354 536 400 517T480 461T531 375T550 262ZM426 262Q426
340 393 385T299 431Q239 431 206 386T172 262Q172 183 205 137T299 91Q359 91 392 137T426 262ZM444 635L397 582L298 663L200 582L152 635L298 775L444 635Z" />
<glyph unicode="&#xf5;" glyph-name="otilde" horiz-adv-x="598" d="M550 262Q550 200 532 149T481 62T402 6T299 -14Q243 -14 197 6T118 62T67 149T48 262Q48 324 66 374T118 461T198 516T299 536Q354 536 400 517T480 461T531 375T550 262ZM426 262Q426 340
393 385T299 431Q239 431 206 386T172 262Q172 183 205 137T299 91Q359 91 392 137T426 262ZM468 696T459 680T435 649T403 624T363 614Q345 614 329 619T298 632T268 644T239 650Q220 650 207 637T185 607L124 643Q129 657 138 673T162 704T195 729T235 739Q253
739 269 733T300 721T330 708T359 702Q378 702 391 715T413 746L474 710Q468 696 459 680Z" />
<glyph unicode="&#xf6;" glyph-name="odieresis" horiz-adv-x="598" d="M550 262Q550 200 532 149T481 62T402 6T299 -14Q243 -14 197 6T118 62T67 149T48 262Q48 324 66 374T118 461T198 516T299 536Q354 536 400 517T480 461T531 375T550 262ZM426 262Q426 340
393 385T299 431Q239 431 206 386T172 262Q172 183 205 137T299 91Q359 91 392 137T426 262ZM195 609Q168 609 148 627T128 676Q128 707 148 725T195 744Q222 744 242 726T263 676Q263 645 243 627T195 609ZM402 609Q375 609 355 627T334 676Q334 707 354 725T402
744Q429 744 449 726T469 676Q469 645 449 627T402 609Z" />
<glyph unicode="&#xf7;" glyph-name="divide" horiz-adv-x="568" d="M357 492Q357 457 335 438T284 419Q255 419 234 438T212 492Q212 526 233 545T284 564Q313 564 335 545T357 492ZM357 96Q357 62 335 43T284 24Q255 24 234 43T212 96Q212 131 233 150T284 169Q313
169 335 150T357 96ZM52 345H516V243H52V345Z" />
<glyph unicode="&#xf8;" glyph-name="oslash" horiz-adv-x="598" d="M550 262Q550 200 532 149T481 62T402 6T299 -14Q261 -14 227 -4T164 23L117 -38L55 9L106 75Q78 111 63 158T48 262Q48 324 66 374T118 461T198 516T299 536Q375 536 434 499L481 560L542 514L491
448Q519 413 534 366T550 262ZM430 262Q430 311 416 350L228 107Q258 86 299 86Q362 86 396 133T430 262ZM168 262Q168 212 182 173L369 415Q337 436 299 436Q237 436 203 390T168 262Z" />
<glyph unicode="&#xf9;" glyph-name="ugrave" horiz-adv-x="583" d="M506 16Q471 7 415 -2T292 -12Q229 -12 187 6T119 56T82 132T71 230V523H192V249Q192 165 216 129T302 93Q324 93 348 95T385 100V523H506V16ZM225 808L370 633L310 579L148 738L225 808Z" />
<glyph unicode="&#xfa;" glyph-name="uacute" horiz-adv-x="583" d="M506 16Q471 7 415 -2T292 -12Q229 -12 187 6T119 56T82 132T71 230V523H192V249Q192 165 216 129T302 93Q324 93 348 95T385 100V523H506V16ZM429 737L266 579L206 633L353 808L429 737Z" />
<glyph unicode="&#xfb;" glyph-name="ucircumflex" horiz-adv-x="583" d="M506 16Q471 7 415 -2T292 -12Q229 -12 187 6T119 56T82 132T71 230V523H192V249Q192 165 216 129T302 93Q324 93 348 95T385 100V523H506V16ZM435 635L388 582L289 663L191 582L143 635L289
775L435 635Z" />
<glyph unicode="&#xfc;" glyph-name="udieresis" horiz-adv-x="583" d="M506 16Q471 7 415 -2T292 -12Q229 -12 187 6T119 56T82 132T71 230V523H192V249Q192 165 216 129T302 93Q324 93 348 95T385 100V523H506V16ZM185 609Q158 609 138 627T118 676Q118 707
138 725T185 744Q212 744 232 726T253 676Q253 645 233 627T185 609ZM392 609Q365 609 345 627T324 676Q324 707 344 725T392 744Q419 744 439 726T459 676Q459 645 439 627T392 609Z" />
<glyph unicode="&#xfd;" glyph-name="yacute" horiz-adv-x="519" d="M504 523Q423 225 316 -17Q296 -62 275 -94T228 -147T170 -177T96 -187Q68 -187 41 -181T-1 -168L21 -71Q57 -85 92 -85Q139 -85 165 -63T212 7Q155 117 103 247T9 523H138Q148 481 162 432T194
333T230 232T268 139Q300 228 328 328T379 523H504ZM411 737L248 579L188 633L335 808L411 737Z" />
<glyph unicode="&#xfe;" glyph-name="thorn" horiz-adv-x="596" d="M550 261Q550 201 535 151T490 65T417 9T318 -11Q280 -11 250 -2T198 18V-185H77V756L198 776V519Q219 526 244 530T290 534Q349 534 397 515T479 461T531 375T550 261ZM426 259Q426 291 417
322T390 377T344 415T279 430Q252 430 231 426T198 417V123Q214 112 240 103T298 93Q365 93 395 138T426 259Z" />
<glyph unicode="&#xff;" glyph-name="ydieresis" horiz-adv-x="519" d="M504 523Q423 225 316 -17Q296 -62 275 -94T228 -147T170 -177T96 -187Q68 -187 41 -181T-1 -168L21 -71Q57 -85 92 -85Q139 -85 165 -63T212 7Q155 117 103 247T9 523H138Q148 481 162 432T194
333T230 232T268 139Q300 228 328 328T379 523H504ZM161 609Q134 609 114 627T94 676Q94 707 114 725T161 744Q188 744 208 726T229 676Q229 645 209 627T161 609ZM368 609Q341 609 321 627T300 676Q300 707 320 725T368 744Q395 744 415 726T435 676Q435 645 415
627T368 609Z" />
<glyph unicode="&#x2013;" glyph-name="endash" horiz-adv-x="500" d="M0 337H500V235H0V337Z" />
<glyph unicode="&#x2014;" glyph-name="emdash" horiz-adv-x="1000" d="M0 337H1000V235H0V337Z" />
<glyph unicode="&#x2018;" glyph-name="quoteleft" horiz-adv-x="252" d="M59 507Q57 520 57 533T57 554Q59 614 80 669T133 768L222 744Q202 700 191 651T180 558Q180 550 180 535T182 507H59Z" />
<glyph unicode="&#x2019;" glyph-name="quoteright" horiz-adv-x="252" d="M193 758Q194 746 194 733T194 712Q192 652 171 597T118 498L30 521Q50 565 61 614T72 708Q72 715 72 730T69 758H193Z" />
<glyph unicode="&#x201a;" glyph-name="quotesinglbase" horiz-adv-x="252" d="M193 133Q194 124 194 115T194 97Q194 34 172 -24T118 -128L30 -104Q50 -60 61 -11T72 82Q72 90 72 105T69 133H193Z" />
<glyph unicode="&#x201c;" glyph-name="quotedblleft" horiz-adv-x="453" d="M59 507Q57 520 57 533T57 554Q59 614 80 669T133 768L222 744Q202 700 191 651T180 558Q180 550 180 535T182 507H59ZM260 507Q258 520 258 533T258 554Q260 614 281 669T334 768L423
744Q403 700 392 651T381 558Q381 550 381 535T383 507H260Z" />
<glyph unicode="&#x201d;" glyph-name="quotedblright" horiz-adv-x="454" d="M193 758Q194 746 194 733T194 712Q192 652 171 597T118 498L30 521Q50 565 61 614T72 708Q72 715 72 730T69 758H193ZM395 758Q396 746 396 733T396 712Q394 652 373 597T320 498L232
521Q252 565 263 614T274 708Q274 715 274 730T271 758H395Z" />
<glyph unicode="&#x201e;" glyph-name="quotedblbase" horiz-adv-x="451" d="M392 133Q393 124 393 115T393 97Q393 34 371 -24T317 -128L229 -104Q249 -60 260 -11T271 82Q271 90 271 105T268 133H392ZM193 133Q194 124 194 115T194 97Q194 34 172 -24T118 -128L30
-104Q50 -60 61 -11T72 82Q72 90 72 105T69 133H193Z" />
<glyph unicode="&#x2022;" glyph-name="bullet" horiz-adv-x="370" d="M321 353Q321 326 312 302T284 259T241 229T185 218Q153 218 128 229T86 258T59 301T49 353Q49 380 58 404T85 447T128 476T185 487Q216 487 241 476T284 447T311 405T321 353Z" />
<glyph unicode="&#x2039;" glyph-name="guilsinglleft" horiz-adv-x="313" d="M276 97L187 53L27 284L187 514L276 470L170 284L276 97Z" />
<glyph unicode="&#x203a;" glyph-name="guilsinglright" horiz-adv-x="313" d="M143 284L37 470L126 514L286 284L126 53L37 97L143 284Z" />
</font>
</defs>
</svg>
